Splash Pro and Windows 10, issues with .avi

Everything about Splash PRO.

Postby outrun » Mon Nov 23, 2015 9:25 am

Hi!
I just installed Windows 10 in my laptop and then installed Splash Pro. I can play mkv and mp4 files with no problems and with all the features on (motion, detail boost and light boost), but when I try to play an .avi file I can't modify this settings, they seem disabled. Is that maybe that I miss some files? (directX or something?). Anyone knows what is happening, or has any problem playing this kind of files with Windows 10? When I had Windows 8 I had no issue whatsoever with any file. Thanks in advance! ;)
outrun
 
Posts: 28
Joined: Thu Apr 07, 2011 10:34 am
PC Specification: i5-480M Ati Mobility 5470 Win 7 64 Home

Postby radi » Mon Nov 23, 2015 12:54 pm

Could you post a MediaInfo report of your AVI file?
User avatar
radi
Mirillis Team
 
Posts: 3452
Joined: Fri Mar 09, 2012 12:31 pm
PC Specification: i7-3610QM, 8GB RAM, GTX 660M

Postby outrun » Tue Nov 24, 2015 4:21 pm

radi wrote:Could you post a MediaInfo report of your AVI file?

I hope this is what you need:

General
Complete name : G:\Frasier VO\Season 4\S04E12 - Death And The Dog.avi
Format : AVI
Format/Info : Audio Video Interleave
File size : 175 MiB
Duration : 22mn 45s
Overall bit rate mode : Variable
Overall bit rate : 1 076 Kbps
Writing application : VirtualDubMod 1.5.10.1 (build 2439/release)
Writing library : VirtualDubMod build 2439/release

Video
ID : 0
Format : MPEG-4 Visual
Format profile : Advanced Simple@L5
Format settings, BVOP : 2
Format settings, QPel : No
Format settings, GMC : No warppoints
Format settings, Matrix : Default (H.263)
Muxing mode : Packed bitstream
Codec ID : XVID
Codec ID/Hint : XviD
Duration : 22mn 44s
Bit rate : 947 Kbps
Width : 576 pixels
Height : 432 pixels
Display aspect ratio : 4:3
Frame rate : 23.976 fps
Color space : YUV
Chroma subsampling : 4:2:0
Bit depth : 8 bits
Scan type : Progressive
Compression mode : Lossy
Bits/(Pixel*Frame) : 0.159
Stream size : 154 MiB (88%)
Writing library : XviD 1.0.3 (UTC 2004-12-20)

Audio
ID : 1
Format : MPEG Audio
Format version : Version 1
Format profile : Layer 3
Mode : Joint stereo
Mode extension : MS Stereo
Codec ID : 55
Codec ID/Hint : MP3
Duration : 22mn 45s
Bit rate mode : Variable
Bit rate : 116 Kbps
Channel(s) : 2 channels
Sampling rate : 48.0 KHz
Compression mode : Lossy
Stream size : 18.8 MiB (11%)
Alignment : Aligned on interleaves
Interleave, duration : 24 ms (0.58 video frame)
Interleave, preload duration : 494 ms
outrun
 
Posts: 28
Joined: Thu Apr 07, 2011 10:34 am
PC Specification: i5-480M Ati Mobility 5470 Win 7 64 Home

Postby outrun » Thu Dec 10, 2015 9:36 am

Finally I get my computer back to Windows 7, I had a bad experience with W10, so no problem whatsoever now...
outrun
 
Posts: 28
Joined: Thu Apr 07, 2011 10:34 am
PC Specification: i5-480M Ati Mobility 5470 Win 7 64 Home


Return to Splash PRO



Who is online

Users browsing this forum: No registered users and 1 guest