Micro stuttering while deinterlacing

Everything about Splash PRO.

Postby P.J » Fri Aug 26, 2011 7:52 am

I tried to play one of my videos and noticed slight stutter with or without GPU :?
Other players play fine.

Image

Code: Select all
General
Format                           : MPEG-PS
File size                        : 350 MiB
Duration                         : 3mn 25s
Overall bit rate                 : 14.3 Mbps

Video
ID                               : 224 (0xE0)
Format                           : MPEG Video
Format version                   : Version 2
Format profile                   : Main@High
Format settings, BVOP            : Yes
Format settings, Matrix          : Default
Duration                         : 3mn 25s
Bit rate mode                    : Variable
Bit rate                         : 13.7 Mbps
Nominal bit rate                 : 65.0 Mbps
Width                            : 1 920 pixels
Height                           : 1 080 pixels
Display aspect ratio             : 16:9
Frame rate                       : 29.970 fps
Color space                      : YUV
Chroma subsampling               : 4:2:0
Bit depth                        : 8 bits
Scan type                        : Interlaced
Scan order                       : Top Field First
Compression mode                 : Lossy
Bits/(Pixel*Frame)               : 0.220
Stream size                      : 334 MiB (95%)

Audio
ID                               : 128 (0x80)
Format                           : AC-3
Format/Info                      : Audio Coding 3
Mode extension                   : CM (complete main)
Duration                         : 3mn 25s
Bit rate mode                    : Constant
Bit rate                         : 384 Kbps
Channel(s)                       : 6 channels
Channel positions                : Front: L C R, Side: L R, LFE
Sampling rate                    : 48.0 KHz
Bit depth                        : 16 bits
Compression mode                 : Lossy
Stream size                      : 9.39 MiB (3%)

Text #1
ID                               : 224 (0xE0)-608-1
Format                           : EIA-608
Muxing mode                      : A/53 / DTVCC Transport
Muxing mode, more info           : Muxed in Video #1
Stream size                      : 0.00 Byte (0%)

Text #2
ID                               : 224 (0xE0)-1
Format                           : EIA-708
Muxing mode                      : A/53 / DTVCC Transport
Muxing mode, more info           : Muxed in Video #1
Stream size                      : 0.00 Byte (0%)

User avatar
P.J
 
Posts: 301
Joined: Mon Jun 27, 2011 7:25 pm
PC Specification: i5-4460, 16GB RAM, GTX 960, Win10 x64

Postby Ghost » Thu Mar 22, 2012 12:13 am

Can you please check if it occurs with latest 1.12.1 version?
Mirillis Team Member

Follow us on Twitter:
http://twitter.com/MirillisTeam
Find us on Facebook:
http://www.facebook.com/Mirillis
Mirillis News Feed:
http://feeds.feedburner.com/mirillisfeed
User avatar
Ghost
Mirillis Team
 
Posts: 1062
Joined: Fri Dec 11, 2009 2:32 pm
PC Specification: dozens...

Postby P.J » Tue Mar 27, 2012 6:33 pm

Splash v1.12.1, Win7 x64 SP1:

T7500,4GB,8600M GT DDR2 256MB v290.61:
GPU: stutter, high video engine load ~85%, less GPU load ~75%
CPU: more stutter, high GPU Load ~85%
WMP12: less stutter than Splash (maybe because of less video quality) but exists.
CPU load is OK for all, so it's because of poor GPU.

G620,8GB,HD6570:
GPU: OK
CPU: De-interlacing problem, visible lines
WMP12: OK

So the only problem is the red line, but not big problem :)
User avatar
P.J
 
Posts: 301
Joined: Mon Jun 27, 2011 7:25 pm
PC Specification: i5-4460, 16GB RAM, GTX 960, Win10 x64

Postby hibaaryan » Mon Jan 12, 2015 7:14 am

For the ones like me who couldn`t hide the mouse cursor in Full Screen mode with Hardware Acceleration ON in windows 7 32, i figure it out why i can`t, and in my case is because i had task bar manager opened even minimized... so shut down all programs even the ones that are minimized and problem solved, mouse cursor disappears after ~5 seconds...
Enjoy the real success with download vce exam and cisco ccna online training programs and latest Also prepare for next level with quality questions and www.northeastern.edu and join Stevenson University
hibaaryan
 
Posts: 1
Joined: Mon Jan 12, 2015 6:58 am
PC Specification: windows 7

Postby dialt1 » Mon Apr 13, 2015 7:43 pm

thanks for helpful infotmations :)
dialt1
 
Posts: 3
Joined: Sun Apr 12, 2015 12:23 pm
PC Specification: Windows 7


Return to Splash PRO



Who is online

Users browsing this forum: No registered users and 1 guest